#TITLE:Red Sign;
#SUBTITLE:~Quattro!!! re-edit~;
#ARTIST:Kevin.o2SE;
#TITLETRANSLIT:;
#SUBTITLETRANSLIT:;
#ARTISTTRANSLIT:;
#CREDIT:;
#BANNER:redsign-banner.png;
#BACKGROUND:redsign-bg.png;
#LYRICSPATH:;
#CDTITLE:quattro!!!cdtittle.png;
#MUSIC:Red Sign.mp3;
#OFFSET:-0.481;
#SAMPLESTART:41.282;
#SAMPLELENGTH:12.000;
#SELECTABLE:YES;
#DISPLAYBPM:80.000:180.000;
#BPMS:0.000=80.000,32.000=150.000,268.000=180.000,336.000=150.000;
#STOPS:;
#BGCHANGES:;
// cache tags:
#FIRSTBEAT:2.000;
#LASTBEAT:416.000;
#SONGFILENAME:Songs/Chilean Keyboard Megapack 3/(Quattro!!!) Red sign/Red Sign.sm;
#HASMUSIC:1;
#HASBANNER:1;
#MUSICLENGTH:175.725;
// end cache tags

//---------------dance-single - ----------------
#NOTES:
     dance-single:
     :
     Challenge:
     15:
     1.000,1.000,1.000,0.933,1.000,1211.000,527.000,164.000,0.000,156.000:
0000
0000
0000
0000
0000
0000
0000
0000
0220
0000
0000
0000
0000
0000
2330
3200
,
0320
0000
0032
0000
0023
0000
0230
0000
2302
0000
0000
0000
0000
3023
0230
2300
,
3200
0000
0320
0000
0032
0000
2003
0000
3220
0000
0000
0000
0000
0332
0023
0230
,
2320
0032
3223
0030
0320
0000
0032
0000
2003
0000
3200
0000
0320
0032
0023
0230
,
2300
0000
3200
0000
0320
0000
0230
0000
2302
0000
0000
0000
0000
0000
3023
0230
,
2300
0000
3200
0000
0320
0000
0032
0000
2203
0000
0000
0000
0000
3320
0032
2003
,
3202
0300
2003
3000
0020
0030
2000
3200
0320
0030
0002
0023
0230
0300
2000
3200
,
0320
0000
0030
0000
2002
0000
3003
0000
0220
0000
0330
0000
0022
0000
0033
0000
2002
0000
0000
0000
0000
0000
0000
0000
0000
0000
0000
0000
0000
0000
0000
3003
,
0000
0000
0000
0000
0000
0000
0000
0000
2222
0000
0000
0000
0000
0000
0000
0000
0000
0000
0003
0030
0300
3000
0000
0000
0000
0000
0000
0000
1100
0000
0110
0000
,
0011
0000
1100
0000
0012
0003
1100
0000
0012
0003
1100
0000
0012
0003
1100
0000
,
0012
0003
1100
0000
0012
0003
1100
0000
0011
1100
1010
0110
0011
1001
0100
1010
,
0102
0003
1010
0000
0102
0003
1010
0000
0102
0003
1010
0000
0102
0003
1010
0000
,
0102
0003
1010
0000
0102
0003
1010
0000
0101
0110
1100
1010
0101
0011
1100
0110
,
0101
0000
1001
0000
0110
0000
1001
1000
0011
0100
1001
0010
1100
0000
1001
0000
,
0110
0000
1100
0000
0101
0000
1010
0000
0101
1000
0011
0010
0101
0100
1010
0100
,
1001
0100
1001
0010
0101
0010
1100
0010
0101
0001
1100
0010
0101
0010
0101
1000
,
1001
0110
1001
0110
1100
0011
1100
0011
1100
0101
1010
0101
1010
0110
0011
0110
,
2002
0110
0110
0110
,
0110
0000
0000
0000
0000
0000
0000
0000
0110
0000
0000
0000
0000
0000
0000
3003
0222
0000
0000
0000
0000
0333
2220
0000
0000
0000
0000
3330
0222
0000
0000
0333
,
2000
0010
0101
0010
0101
0010
0101
0010
0101
0010
0101
0010
0101
0010
0101
0010
,
3200
0001
1010
0001
1010
0001
1010
0001
2300
0100
0001
3020
0100
0001
2030
0100
,
3002
1000
0110
1000
0110
1000
0110
1000
0110
1000
0110
1000
0110
1000
0110
1000
,
0023
0100
1001
0100
1001
0100
1001
0100
1001
0100
1001
0100
2030
0010
3200
0010
,
1302
0010
1100
0010
1100
0010
1100
0010
1100
0010
1100
0010
1100
0010
1100
0010
,
2003
0100
0011
0100
0011
0100
0011
0100
3200
0010
0001
0320
0001
0130
0002
1000
,
2003
0001
0110
0001
0110
0001
0110
0001
0110
0001
0110
0001
0110
0001
0110
0001
,
3200
1000
0011
1000
0011
1000
0011
1000
0302
0100
1000
0023
1000
0001
0230
0010
,
2300
0001
0110
0001
0110
0001
0110
0001
0110
0001
0110
0001
0110
0001
0110
0001
,
3200
1000
0011
1000
0011
1000
0011
1000
0302
0100
1000
0023
0001
0030
2000
0010
,
3002
0100
1010
0100
1010
0100
1010
0100
1010
0100
1010
0100
1010
0100
1010
0100
,
2003
0010
0101
0010
0101
0010
0101
0010
0101
0010
0101
0010
3200
0000
0320
0100
,
0032
0010
1100
0010
1100
0010
1100
0010
1100
0010
1100
0010
1100
0010
1100
0010
,
2003
0100
0011
0100
0011
0100
0011
0100
0011
0100
0011
0100
0011
0100
0011
0100
,
3002
1100
1100
1100
,
1103
0010
0001
0010
0100
0010
0001
1000
0100
0010
0100
1000
0100
0010
0001
0010
,
2222
0000
0000
0000
0000
3333
1110
0000
0111
0000
0000
0000
1110
0000
0000
0000
,
2222
0000
3333
1100
0101
0111
0111
0000
,
2200
0000
0000
0000
0000
3300
0111
0000
1110
0000
0000
0000
0110
0000
0000
0000
,
1001
0000
0000
0000
0000
0000
0111
0000
1110
0000
0110
0000
0011
0000
1100
0010
,
1001
0000
0000
1110
0111
0000
1100
0000
,
0111
0000
0000
1110
0111
1100
1100
0000
,
0111
0000
0000
1110
0111
0000
1100
0000
,
0111
0000
0000
0000
0000
0000
1110
0000
0111
0000
1100
0000
1100
0000
0011
1000
,
0012
0000
0010
0100
1000
0000
0010
0100
1000
0000
0010
0100
1000
0000
0010
0100
,
2003
0000
0100
0010
0001
0000
0100
0010
0001
0000
0100
0010
0001
0000
0100
0010
,
3002
0000
0010
0100
1000
0000
0010
0100
1000
0000
0010
0100
1000
0000
0010
0100
,
2003
0000
0100
0010
0001
0000
0100
0010
0001
0000
0100
0010
0001
0000
0100
0010
,
3002
0000
0010
0100
1000
0000
0010
0100
1000
0000
0010
0100
1000
0000
0010
0100
,
2003
0000
0100
0010
0001
0000
0100
0010
3002
0000
0010
0100
2003
0000
0100
0010
,
3002
0000
0010
0100
1000
0000
0010
0100
1000
0000
0010
0100
1000
0000
0010
1000
,
0223
0000
1000
0001
1000
0001
1000
0001
1000
0001
1000
0001
1000
0001
1330
0001
,
1100
0110
0101
0011
0101
0110
1100
0110
,
0101
0000
0011
0000
0101
0000
0110
0000
0110
1001
0110
1001
0110
1001
0110
0000
,
0101
1010
0110
1100
0110
1001
0110
0011
,
1100
0000
0011
0000
0101
0000
1010
0000
0011
1100
0011
1100
0011
1100
0011
1100
,
0011
1100
0110
0101
0011
0101
0110
1100
,
0110
1100
0110
0011
0101
1010
0101
0011
,
0101
1010
0101
1010
0101
1010
0101
1010
0101
1010
0101
1010
0101
1010
0101
1000
,
0110
1001
0110
1001
0110
1001
0110
1001
0110
1001
0110
1001
0110
1001
0110
1001
,
0110
1100
0110
0101
0011
0101
0110
1100
,
0110
0000
1100
0000
0110
0000
0101
0000
1001
0101
0011
0101
1001
0101
0011
0101
,
1001
1100
0110
0101
0011
0101
1100
0110
,
0101
0000
1100
0000
0110
0000
0101
0000
0110
1010
0011
0110
0011
0110
1010
0110
,
0011
1100
0110
0101
0011
1100
0110
0101
,
0011
1100
0110
0011
0101
1100
0110
0101
,
1100
0010
0101
0010
1100
0001
0101
0010
1100
0010
0101
1000
0101
0010
0101
1000
,
0011
1000
0101
0010
0011
0100
1001
0100
1010
0100
0011
0001
0101
0100
1010
0100
,
2222
0000
0000
0000
,
0000
0000
0000
0000
0000
0000
0000
0000
0000
0000
0000
0000
0000
0000
0000
0000
0000
0000
0000
0000
0000
0000
0000
0000
0000
0000
0000
0000
0000
0000
0000
3333
,
1001
0100
0010
0001
0010
0100
0010
0001
1000
0100
0010
0100
1000
0100
0010
0001
,
0010
0100
1000
0100
0010
0001
0010
0100
0010
0001
1000
0100
0010
0001
1000
0001
,
1010
0100
0010
0001
0010
0100
0010
0001
1000
0001
1000
0001
0010
0100
1000
0001
,
1000
0001
0010
0100
0010
0001
1000
0100
0010
0001
0010
0100
0010
0001
1000
0100
,
1010
0001
0010
0100
0010
0001
1000
0100
0010
0100
1000
0001
1000
0001
1000
0001
,
0010
0100
1000
0100
0010
0001
0010
0100
0010
0001
1000
0100
0010
0100
1000
0100
,
0011
0100
1000
0100
0010
0001
0010
0100
0010
0001
1000
0100
0010
0001
0010
0100
,
1001
0100
0010
0001
0010
0100
1000
0100
0011
1000
0100
0010
0001
0010
0100
0010
,
1001
0100
0010
0001
0010
0100
0010
0001
1000
0100
0010
0001
0010
0100
0010
0001
,
1000
0100
0010
0100
1000
0100
0010
0001
0010
0100
0010
0001
0010
0100
1000
0100
,
0011
1000
0100
0010
0001
0010
0100
0010
0001
1000
0100
0010
0100
1000
0100
0010
,
0001
0010
0100
1000
0100
0010
0001
0010
0100
0010
0001
1000
0001
1000
0001
0010
,
1100
0010
0001
0010
0100
1000
0100
0010
0100
1000
0100
0010
0001
0010
0100
0010
,
1001
0100
0010
0001
0010
0100
0010
0001
1000
0100
0010
0001
0010
0100
1000
0100
,
0022
0000
0000
0000
,
0000
0000
0000
0000
,
0000
0000
0000
0000
0000
0000
0000
0033
2000
0000
0000
3200
0000
0000
0320
0000
,
1031
0100
1001
0010
1001
0100
0011
1000
0011
0100
0011
1000
0011
0100
1010
0001
,
1010
0100
1010
0001
1010
0100
0011
0100
1010
0001
0110
1000
0011
1000
0101
1000
,
0101
0010
1001
0010
1100
0001
0110
1000
0101
1000
0011
1000
0101
0010
1100
0001
,
0110
1000
0101
1000
0011
1000
0101
0010
1100
0010
1001
0100
0011
1000
0110
0001
,
1010
0001
0110
1000
0011
0100
1010
0100
0011
1000
0101
1000
0011
0100
1001
0100
,
1010
0100
1001
0010
0101
1000
0011
1000
0110
0001
1010
0001
0110
1000
0011
0100
,
1010
0001
0110
1000
0110
0001
0110
0001
1100
0001
1100
0001
0110
0001
0110
1000
,
0110
1000
0110
1000
0011
1000
0101
0100
1010
0001
0110
1000
0101
1000
0011
1000
,
0101
0010
1100
0001
0110
1000
0101
1000
0011
1000
0101
0010
1100
0001
0110
1000
,
0101
1000
0101
1000
0110
1000
0101
1000
0110
0001
1010
0100
0011
0100
1010
0001
,
0110
1000
0011
0100
1001
0010
1100
0001
0110
0001
1100
0010
1100
0010
0101
1000
,
0110
0001
1100
0001
0110
1000
0110
0001
1010
0100
1001
0010
1100
0010
0101
1000
,
0110
0000
1100
0010
0101
1000
0011
0100
1010
0001
1100
0010
0101
1000
0011
0100
,
1010
0001
0110
1000
0011
0100
1001
0010
1100
0001
1100
0010
1001
0100
0011
1000
,
0102
1100
0110
1100
,
0113
1000
0100
0000
0011
0100
1000
0000
1010
0100
0011
0100
1010
0100
0011
0100
,
1011
0100
1011
0100
1011
0100
1011
0100
1011
0100
1011
0100
1011
0100
1011
0100
,
2022
0000
0000
0000
,
3033
0000
0000
0000
;
